Devil In The Blue Dress (1989)

Devil In The Blue Dress (1989)

apzcxsixwnpm.jpg

Complete name: Devil In The Blue Dress (1989)
Cast: Charisma, Cheri Taylor, Jacqueline, Scarlet Windsor
Format : Windows Media
File size : 749 MiB
Duration : 1h 20mn
Overall bit rate mode : Constant
Overall bit rate : 1 294 Kbps
Maximum Overall bit rate : 1 328 Kbps
Encoded date : UTC 2007-08-01 14:31:56.975

Video
ID : 2
Format : VC-1
Format profile : MP@ML
Codec ID : WMV3
Codec ID/Info : Windows Media Video 9
Codec ID/Hint : WMV3
Description of the codec : Windows Media Video 9
Duration : 1h 20mn
Bit rate mode : Constant
Bit rate : 1 250 Kbps
Width : 480 pixels
Height : 360 pixels
Display aspect ratio : 4:3
Frame rate : 29.970 fps
Bit depth : 8 bits
Scan type : Progressive
Compression mode : Lossy
Bits/(Pixel*Frame) : 0.241
Stream size : 724 MiB (97%)
Language : English (US)

Audio
ID : 1
Format : WMA
Format version : Version 2
Codec ID : 161
Codec ID/Info : Windows Media Audio
Description of the codec : Windows Media Audio 9.1 – 64 kbps, 48 kHz, stereo (A/V) 1-pass CBR
Duration : 1h 20mn
Bit rate mode : Constant
Bit rate : 64.0 Kbps
Channel(s) : 2 channels
Sampling rate : 48.0 KHz
Bit depth : 16 bits
Stream size : 37.1 MiB (5%)
Language : English (US)

9423534_de1.jpg 9423543_de1a.jpg 9423545_de1b.jpg 9423549_de1c.jpg

Oron Download:

http://oron.com/vvc5dzw1s71d
http://oron.com/r9c4lkyqqlyq
http://oron.com/bexc1ug4uj0d

Bitshare Download:

http://bitshare.com/files/wqku5otg/DEINTHBLDR.part1.rar.html
http://bitshare.com/files/3zlvo4m3/DEINTHBLDR.part2.rar.html
http://bitshare.com/files/c06th30a/DEINTHBLDR.part3.rar.html

http://depositfiles.com/files/ipqgarem1
http://depositfiles.com/files/36fl4u2k8
http://depositfiles.com/files/pyr7g9a72

Rapidgator Download:

DEINTHBLDR.part1.rar
DEINTHBLDR.part2.rar
DEINTHBLDR.part3.rar

Comments are closed.